Italo Disco World

Информация о пользователе

Привет, Гость! Войдите или зарегистрируйтесь.



Сamouflage

Сообщений 1 страница 30 из 32

1

Camouflage - Strangers Thoughts (Live die Spielbude)

http://s47.radikal.ru/i117/1002/cd/563e06873594t.jpg

Скрытый текст:

Для просмотра скрытого текста - войдите или зарегистрируйтесь.

0

2

Сamouflage - Neighbours
http://s49.radikal.ru/i125/0910/c1/1a657049bb94.jpg
http://www.mediafire.com/?g5kgieyydkm

+1

3

Camouflage - Love Is A Shield (1989) (NL).vob
http://img96.imageshack.us/img96/5630/c1lias.jpg

Скрытый текст:

Для просмотра скрытого текста - войдите или зарегистрируйтесь.

+1

4

Camouflage - Me and You
http://s60.radikal.ru/i167/1004/0d/b158853d5165.jpg

Скрытый текст:

Для просмотра скрытого текста - войдите или зарегистрируйтесь.

+2

5

winsborn написал(а):

Camouflage - Me and You

Яна, видео под паролем....

+1

6

Извиняюсь, может цифровой код ввела не в то окошко  http://www.kolobok.us/smiles/standart/blush2.gif 
Вообщем, пароль сбросила! Щас никакого пароля!

Отредактировано winsborn (2010-04-01 22:38:29)

+1

7

Camouflage - X-Ray

http://s002.radikal.ru/i199/1004/ac/684d4178a496t.jpg

Скрытый текст:

Для просмотра скрытого текста - войдите или зарегистрируйтесь.

0

8

Camouflage - A Great Commandment ZDF Hitparade

http://s3.postimage.org/mKhkr.jpg

mpg. 99 mb. 720 X 576

Скрытый текст:

Для просмотра скрытого текста - войдите или зарегистрируйтесь.

+1

9

Camouflage - Love Is A Shield (live @ 1989 ZDF HITPARADE)

File Name : Camouflage - Love Is A Shield (live @ 1989 ZDF HITPARADE).mpg
File Size : 191.38 MB / 200 679 424 bytes
Resolution : 768x576
Duration : 00:03:34
Video : MPEG Video (MPEG-2 Video), 6 763 Kbps, 25.000 fps
Audio : AC-3 (AC3), 448 Kbps (CBR), 48.0 KHz, 2 channels, 1 stream
http://s019.radikal.ru/i625/1509/95/92eb8714defa.jpg

Скрытый текст:

Для просмотра скрытого текста - войдите или зарегистрируйтесь.

Отредактировано Valery (2015-09-17 21:13:42)

+1

10

gracias por estos videos...que recuerdos http://s45.radikal.ru/i108/0902/62/5e703c314b67.gif

+1

11

Camouflage - The great commandment  (ZDF Kultur Hitparade 11.11.1987)

http://s16.postimage.org/a87fw7f2p/Camouflage_The_great_commandment_ZDF_Kultur_H.jpg

http://ifolder.ru/31036909

0

12

Camouflage - The great commandment (ZDF Kultur Hitparade 16.12.1987)

http://s17.postimage.org/kbq1ny18r/Camouflage_The_great_commandment_ZDF_Kultur_H.jpg

http://ifolder.ru/31105372

0

13

Camouflage - Stranger thoughts (ZDF Kultur Hitparade 20.04.1988)

http://s18.postimage.org/5rvuegxk5/Camouflage_Stranger_thoughts_ZDF_Kultur_Hitpa.jpg

http://ifolder.ru/31182739

0

14

Camouflage - Love is a shield (ZDF Kultur Hitparade 12.07.1989)

http://s12.postimage.org/gnwa2tt7d/Camouflage_Love_is_a_shield_ZDF_Kultur_Hitpar.jpg

http://ifolder.ru/31348356

0

15

Camouflage - Love is a shield (ZDF Kultur Hitparade 09.08.1989)

http://s15.postimage.org/5zvvu4nk7/Camouflage_Love_is_a_shield_ZDF_Kultur_Hitpar.jpg

http://ifolder.ru/31383943

0

16

Camouflage - Love Is A Shield (Extended Version)


http://s017.radikal.ru/i410/1207/b7/5fdf6c62c076.jpg
http://i075.radikal.ru/1207/e1/8c0c98503379.jpg

http://s012.radikal.ru/i321/1103/da/7dd05279a746.gif

Скрытый текст:

Для просмотра скрытого текста - войдите или зарегистрируйтесь.

+1

17

Camouflage - The Great Commandment

http://s1.uploads.ru/i/96sfy.png

http://s1.uploads.ru/i/wmUjl.jpg

параметры медиа файла

Format                           : AVI
Format/Info                      : Audio Video Interleave
File size                        : 67.3 MiB
Duration                         : 3mn 8s
Overall bit rate                 : 2 990 Kbps

Video
ID                               : 0
Format                           : MPEG-4 Visual
Format profile                   : Advanced Simple@L5
Format settings, BVOP            : Yes
Format settings, QPel            : No
Format settings, GMC             : No warppoints
Format settings, Matrix          : Default (H.263)
Codec ID                         : XVID
Codec ID/Hint                    : XviD
Duration                         : 3mn 8s
Bit rate                         : 2 850 Kbps
Width                            : 720 pixels
Height                           : 576 pixels
Display aspect ratio             : 4:3
Frame rate                       : 25.000 fps
Standard                         : PAL
Color space                      : YUV
Chroma subsampling               : 4:2:0
Bit depth                        : 8 bits
Scan type                        : Progressive
Bits/(Pixel*Frame)               : 0.275
Stream size                      : 64.1 MiB (95%)
Writing library                  : XviD 1.2.1 (UTC 2008-12-04)

Audio
ID                               : 1
Format                           : MPEG Audio
Format version                   : Version 1
Format profile                   : Layer 3
Codec ID                         : 55
Codec ID/Hint                    : MP3
Duration                         : 3mn 7s
Bit rate mode                    : Constant
Bit rate                         : 128 Kbps
Channel(s)                       : 2 channels
Sampling rate                    : 48.0 KHz
Stream size                      : 2.86 MiB (4%)
Alignment                        : Split accross interleaves
Interleave, duration             : 24 ms (0.60 video frame)

http://i17.fastpic.ru/big/2011/0310/e9/f1ccb074d99d16cb92c2d0cffcac7de9.gif
Fast Download Letitbit
Stable Download Deposit files

+1

18

Camouflage - Handsome

http://s1.uploads.ru/i/bPXvi.jpg

http://s1.uploads.ru/i/Mdcny.jpg

параметры медиа файла

Format                           : AVI
Format/Info                      : Audio Video Interleave
File size                        : 255 MiB
Duration                         : 3mn 10s
Overall bit rate                 : 11.2 Mbps
Writing library                  : VirtualDub build 30009/release

Video
ID                               : 0
Format                           : MPEG-4 Visual
Format profile                   : Advanced Simple@L5
Format settings, BVOP            : Yes
Format settings, QPel            : No
Format settings, GMC             : No warppoints
Format settings, Matrix          : Custom
Muxing mode                      : Packed bitstream
Codec ID                         : XVID
Codec ID/Hint                    : XviD
Duration                         : 3mn 10s
Bit rate                         : 11.1 Mbps
Width                            : 640 pixels
Height                           : 480 pixels
Display aspect ratio             : 4:3
Frame rate                       : 25.000 fps
Color space                      : YUV
Chroma subsampling               : 4:2:0
Bit depth                        : 8 bits
Scan type                        : Progressive
Bits/(Pixel*Frame)               : 1.446
Stream size                      : 252 MiB (99%)
Writing library                  : XviD 64

Audio
ID                               : 1
Format                           : MPEG Audio
Format version                   : Version 1
Format profile                   : Layer 3
Mode                             : Joint stereo
Mode extension                   : MS Stereo
Codec ID                         : 55
Codec ID/Hint                    : MP3
Duration                         : 3mn 9s
Bit rate mode                    : Constant
Bit rate                         : 112 Kbps
Channel(s)                       : 2 channels
Sampling rate                    : 48.0 KHz
Stream size                      : 2.53 MiB (1%)
Alignment                        : Split accross interleaves
Interleave, duration             : 40 ms (1.01 video frame)
Interleave, preload duration     : 500 ms

http://i17.fastpic.ru/big/2011/0310/e9/f1ccb074d99d16cb92c2d0cffcac7de9.gif
Fast Download Letitbit
Stable Download Deposit files

0

19

Camouflage - Thief

http://s1.uploads.ru/i/vGrEh.jpg

http://s1.uploads.ru/i/QzWFR.jpg

параметры медиа файла

Format                           : AVI
Format/Info                      : Audio Video Interleave
File size                        : 61.6 MiB
Duration                         : 3mn 22s
Overall bit rate                 : 2 548 Kbps
Writing library                  : VirtualDub build 30009/release

Video
ID                               : 0
Format                           : MPEG-4 Visual
Format profile                   : Advanced Simple@L5
Format settings, BVOP            : Yes
Format settings, QPel            : No
Format settings, GMC             : No warppoints
Format settings, Matrix          : Custom
Muxing mode                      : Packed bitstream
Codec ID                         : XVID
Codec ID/Hint                    : XviD
Duration                         : 3mn 22s
Bit rate                         : 2 408 Kbps
Width                            : 720 pixels
Height                           : 480 pixels
Display aspect ratio             : 3:2
Frame rate                       : 29.970 fps
Standard                         : NTSC
Color space                      : YUV
Chroma subsampling               : 4:2:0
Bit depth                        : 8 bits
Scan type                        : Progressive
Bits/(Pixel*Frame)               : 0.232
Stream size                      : 58.2 MiB (95%)
Writing library                  : XviD 64

Audio
ID                               : 1
Format                           : MPEG Audio
Format version                   : Version 1
Format profile                   : Layer 3
Mode                             : Joint stereo
Mode extension                   : MS Stereo
Codec ID                         : 55
Codec ID/Hint                    : MP3
Duration                         : 3mn 22s
Bit rate mode                    : Constant
Bit rate                         : 128 Kbps
Channel(s)                       : 2 channels
Sampling rate                    : 48.0 KHz
Stream size                      : 3.09 MiB (5%)
Alignment                        : Split accross interleaves
Interleave, duration             : 33 ms (1.00 video frame)
Interleave, preload duration     : 500 ms

http://i17.fastpic.ru/big/2011/0310/e9/f1ccb074d99d16cb92c2d0cffcac7de9.gif
Fast Download Letitbit
Stable Download Deposit files

+1

20

Camouflage - Suspicious Love

http://s1.uploads.ru/i/M1djl.jpg

http://s1.uploads.ru/i/zMo3h.jpg

параметры медиа файла

Format                           : AVI
Format/Info                      : Audio Video Interleave
File size                        : 179 MiB
Duration                         : 4mn 14s
Overall bit rate                 : 5 898 Kbps

Video
ID                               : 0
Format                           : MPEG-4 Visual
Format profile                   : Advanced Simple@L5
Format settings, BVOP            : Yes
Format settings, QPel            : No
Format settings, GMC             : No warppoints
Format settings, Matrix          : Default (H.263)
Codec ID                         : XVID
Codec ID/Hint                    : XviD
Duration                         : 4mn 14s
Bit rate                         : 5 757 Kbps
Width                            : 720 pixels
Height                           : 576 pixels
Display aspect ratio             : 5:4
Frame rate                       : 25.000 fps
Standard                         : PAL
Color space                      : YUV
Chroma subsampling               : 4:2:0
Bit depth                        : 8 bits
Scan type                        : Progressive
Bits/(Pixel*Frame)               : 0.555
Stream size                      : 175 MiB (98%)
Writing library                  : XviD 1.2.1 (UTC 2008-12-04)

Audio
ID                               : 1
Format                           : MPEG Audio
Format version                   : Version 1
Format profile                   : Layer 3
Codec ID                         : 55
Codec ID/Hint                    : MP3
Duration                         : 4mn 13s
Bit rate mode                    : Constant
Bit rate                         : 128 Kbps
Channel(s)                       : 2 channels
Sampling rate                    : 48.0 KHz
Stream size                      : 3.86 MiB (2%)
Alignment                        : Split accross interleaves
Interleave, duration             : 24 ms (0.60 video frame)

http://i17.fastpic.ru/big/2011/0310/e9/f1ccb074d99d16cb92c2d0cffcac7de9.gif
Fast Download Letitbit
Stable Download Deposit files

Отредактировано alex_big (2012-09-08 10:38:02)

+1

21

Camouflage - The great Commandment (ZDF Kultur Sommerhitparade 18.08.1988)

http://i39.fastpic.ru/thumb/2012/1010/52/d860e856a931db62454c2ea82e137352.jpeg

http://narod.ru/disk/62277776001.04f1c9 … e.rar.html

0

22

Audrey написал(а):

Camouflage - Strangers Thoughts (Live die Spielbude)

А нет ли у кого-нибудь официального видео на этот трэк, заранее благодорен

0

23

Camouflage - Strangers Thoughts

http://s019.radikal.ru/i634/1312/2b/755c9f3dbf60.jpg

http://rusfolder.com/images/download_2.jpg

+1

24

Camouflage - We Are Lovers (live in Dresden)

http://s018.radikal.ru/i522/1406/f0/8815b803bada.jpg

http://rusfolder.com/images/download_2.jpg

+2

25

Camouflage - The Great Commandment

http://s019.radikal.ru/i628/1410/3e/302eb6001f03.jpg

http://rusfolder.com/images/download_2.jpg

+2

26

Camouflage - Me And You

http://s016.radikal.ru/i334/1504/2d/3a95a215aa9f.jpg

http://rusfolder.com/images/download_2.jpg

+1

27

Camouflage - Me & You ( Live in Dresden 2006)

http://s010.radikal.ru/i312/1504/64/74c7f849e579.jpg

http://rusfolder.com/images/download_2.jpg

+1

28

Camouflage - Shine

http://s50.radikal.ru/i130/1506/f7/da7eac03fa03.jpg

http://rusfolder.com/images/download_2.jpg

+1

29

CAMOUFLAGE - THE GREAT COMMANDMENT

http://i70.fastpic.ru/thumb/2015/0823/d3/4426bbf29417cb322cfa0173bc4306d3.jpeg

http://rusfolder.com/44111110

0

30

Camouflage - Love is a Shield (ZDF-Hitparade, 09.08.1989)

http://s30.postimg.org/v91wkpxnh/Camouflage_Love_is_a_Shield_ZDF_Hitparade_09.jpg

https://yadi.sk/i/TaTZmEiNmfef5

http://www99.zippyshare.com/v/me8BCVYw/file.html
http://www99.zippyshare.com/v/9CYwkbnp/file.html
http://www99.zippyshare.com/v/afcG1T30/file.html

  Camouflage - Strangers Thoughts (ZDF-Hitparade, 20.04.1988)

http://s30.postimg.org/c58l4dkt9/Camouflage_Strangers_Thoughts_ZDF_Hitparade.jpg

  https://yadi.sk/i/Qsvc4viLmfeho

http://www99.zippyshare.com/v/17GIOWiy/file.html
http://www99.zippyshare.com/v/dOXBwwLH/file.html

0



Создать форум