Italo Disco World

Информация о пользователе

Привет, Гость! Войдите или зарегистрируйтесь.



Kim Wilde

Сообщений 61 страница 90 из 116

61

мой вариант)))

Kim Wilde - Sopot 88

http://s18.postimage.org/6033hqi1h/Kim_Wilde_Sopot_88_avi_thumbs_2012_03_30_21_48.jpghttp://s14.postimage.org/54z3fhei5/kim2.jpg
http://s9.postimage.org/cbql5tijf/kim.jpghttp://s16.postimage.org/yvuhpzge9/kim3.jpghttp://s17.postimage.org/jfib1tqkr/kim4.jpghttp://s13.postimage.org/yxfvc7x5v/kim5.jpg

Треклист:
1. Chequered love
2. You came
3. The second time
4. Love in the natural way
5. Never trust a stranger
6. Cambodia
7. You'll be the one who'll lose
8. Kids in America
9. You keep me hangin' on
10. You keep me hangin' on (encore)



General
Complete name                            : E:\Kim Wilde Sopot 88.avi
Format                                   : AVI
Format/Info                              : Audio Video Interleave
Format profile                           : OpenDML
File size                                : 2.02 GiB
Duration                                 : 46mn 7s
Overall bit rate                         : 6 269 Kbps

Video
ID                                       : 0
Format                                   : MPEG-4 Visual
Format profile                           : Advanced Simple@L5
Format settings, BVOP                    : 2
Format settings, QPel                    : No
Format settings, GMC                     : No warppoints
Format settings, Matrix                  : Default (H.263)
Muxing mode                              : Packed bitstream
Codec ID                                 : XVID
Codec ID/Hint                            : XviD
Duration                                 : 46mn 7s
Bit rate                                 : 4 851 Kbps
Width                                    : 768 pixels
Height                                   : 576 pixels
Display aspect ratio                     : 4:3
Frame rate                               : 25.000 fps
Color space                              : YUV
Chroma subsampling                       : 4:2:0
Bit depth                                : 8 bits
Scan type                                : Progressive
Compression mode                         : Lossy
Bits/(Pixel*Frame)                       : 0.439
Stream size                              : 1.56 GiB (77%)
Writing library                          : XviD 64

Audio
ID                                       : 1
Format                                   : PCM
Format settings, Endianness              : Little
Format settings, Sign                    : Signed
Codec ID                                 : 1
Duration                                 : 46mn 7s
Bit rate mode                            : Constant
Bit rate                                 : 1 411.2 Kbps
Channel(s)                               : 2 channels
Sampling rate                            : 44.1 KHz
Bit depth                                : 16 bits
Stream size                              : 466 MiB (23%)
Interleave, duration                     : 40 ms (1.00 video frame)
Interleave, preload duration             : 1020 ms

http://rusfolder.com/38213858
http://rusfolder.com/38213766
http://rusfolder.com/38213883
http://rusfolder.com/38213887
http://rusfolder.com/38213853

0

62

Kim Wilde - Touch Kanguru

http://s14.postimage.org/4jyz8lv0t/Kim_Wilde_Touch_mpg_thumbs_2012_04_29_13_19_1.jpg


http://narod.ru/disk/47586300001.254e5a214f11101e083e60073135d7c6/Kim Wilde - Touch.mpg.html
http://www.multiupload.nl/8CPEOIXNAV

0

63

Valery написал(а):

Kim Wilde - Can't Get Enough (live)

File Name: Kim Wilde - Can't Get Enough (live).VOB
File Size   : 264.88 MB / 277 751 808 bytes
Resolution: 768x576
Duration   : 00:03:38
Video       : MPEG Video (MPEG-2 Video), 9 322 Kbps, 25.000 fps
Audio        : AC-3 (AC3), 448 Kbps (CBR), 48.0 KHz, 2 channels, 1 stream

Здравствуйте , можно перезалить вот это выступление , а то ссылка не рабочая

0

64

serginio169, пожалуйста, перезалито! (на 2-ой стр.) http://www.kolobok.us/smiles/standart/drinks.gif

0

65

Valery написал(а):

pass: KimWildeCnge90talu-byVit

Спасибо огромное http://s59.radikal.ru/i165/0902/5b/39ea6c01a77d.gif

0

66

Kim Wilde - The Second Time (WWF Club 1984)

http://s13.postimage.org/6628b4b2b/Kim_Wilde_The_second_Time_Live_Einsfestival_W.jpg

http://narod.ru/disk/49014076001.738e78ec260c2b35eaa732a5a80bf8b1/Kim Wilde - The second Time.mpg.html
http://www64.zippyshare.com/v/17693641/file.html

0

67

Kim Wilde - Rage to Love (Live @ WWF Club 1985)

File Name : Kim Wilde - Rage to Love (Live @ WWF Club 1985).V0B
File Size : 206.19 MB / 216 201 216 bytes
Resolution : 768x576
Duration : 00:03:37
Video : MPEG Video (MPEG-2 Video), 7 195 Kbps, 25.000 fps
Audio : AC-3 (AC3), 448 Kbps (CBR), 48.0 KHz, 2 channels, 1 stream
http://i40.fastpic.ru/big/2012/0812/99/1dbc095855b58a01f9f139ffc5713b99.jpg
http://i41.fastpic.ru/big/2012/0812/a5/8e8fb2f0da6097a81b0266d08926f9a5.jpg

Скрытый текст:

Для просмотра скрытого текста - войдите или зарегистрируйтесь.

+1

68

в HD

Kim Wilde - Rage to love (Einsfestival WWF-Club 19.04.1985)

http://s8.postimage.org/4oj2ojdv5/Kim_Wilde_Rage_to_love_Einsfestival_WWF_Club.jpg

http://rusfolder.com/32146724
http://www3.zippyshare.com/v/64333347/file.html

0

69

Kim Wilde - Water On Glass Musikladen

http://s8.postimage.org/e69mx3ks1/Kim_Wilde_Water_On_Glass_mpg_thumbs_2012_08_1.jpg

http://rusfolder.com/32147690
http://www18.zippyshare.com/v/69633443/file.html

0

70

Kim Wilde Kambodia 1981

http://s14.postimage.org/jjcwrzozx/Kim_Wilde_Kambodia_1981_avi_thumbs_2012_09_01_1.jpg

http://rusfolder.com/32409079
http://www42.zippyshare.com/v/97454122/file.html

0

71

Kim Wilde - Never Trust A Stranger
http://s019.radikal.ru/i639/1303/45/bafcbd4b9b64.jpg

http://rusfolder.com/images/download_2.jpg

+1

72

А нет ли у кого клипа Someday, заранее спасибо.

0

73

Kim Wilde - Kids In America

http://s7.postimage.org/5sywh2iq3/Cover_Commander.jpg

http://rusfolder.com/images/download_2.jpg

+1

74

TVI написал(а):

Kim Wilde-You came
http://i032.radikal.ru/1109/a4/1a8a06cbfe02.jpg
Скрытый текст:

    http://www.megaupload.com/?d=BQV1QF5U

Отредактировано TVI (2011-09-02 23:51:46)

Подпись автора

    I Love the 80's

перезалейте ссылку!!!

0

75

Kim Wilde - Don't Say Nothing's Changed
("C'est encore mieux l'après-midi" Antenne-2, France 1986)

http://s58.radikal.ru/i161/1307/23/6d03ca360021t.jpg

http://yadi.sk/d/wd4Wy_pV6ZI3M

+1

76

Kim Wilde - Dancing In The Dark (Les Vainqueurs '84)

http://s017.radikal.ru/i437/1307/ba/21b6a161acfft.jpg

http://rusfolder.com/37272174
http://dfiles.ru/files/okmk5r2iy?redirect

Kim Wilde - Love Blonde (Les Vainqueurs '84)

http://s006.radikal.ru/i213/1307/fa/f963ad777432t.jpg

http://rusfolder.com/37272276
http://dfiles.ru/files/3d7jnm72g

+1

77

Kim Wilde - The Second Time (Disco d'Or 1984)

http://s020.radikal.ru/i715/1307/11/aebcbbae6e8bt.jpg

http://rusfolder.com/37438837
http://dfiles.ru/files/i4mqh869d?redirect

+1

78

Kim Wilde - Never Trust A Stranger (Telethon 1988)

http://s16.radikal.ru/i191/1308/ff/3ee3c387fa90t.jpg

http://rusfolder.com/37640125
http://dfiles.ru/files/7r86kow84

+1

79

Kim Wilde - Hey Mr. Heartache (Die Spielbude 1988)

http://s020.radikal.ru/i720/1308/44/e5ae4ad4d415t.jpg

http://rusfolder.com/37741935

+1

80

Kim Wilde - Cambodia (Musikladen 1981)
http://s4.uploads.ru/t/D3CHr.jpg
Формат видео: mp4
Видео: AVC 8191 Кбит/сек, 720 x 576, 25,000 кадров/сек
Аудио: AAC 320 Кбит/сек, 2 канала, 48,0 КГц
Продолжительность: 2 м. 33 с.
Размер: 152 MB

Скачать с turbobit.net
Скачать с depositfiles.com
Скачать с gigapeta.com

+1

81

Kim Wilde - You Came (La Classe, French Tv 1988)

http://i024.radikal.ru/1309/00/af5762d9df34t.jpg

http://rusfolder.com/38179301
http://dfiles.ru/files/i3bawz4d3

+2

82

Audrey написал(а):

мой вариант)))

Kim Wilde - Sopot 88



Треклист:
1. Chequered love
2. You came
3. The second time
4. Love in the natural way
5. Never trust a stranger
6. Cambodia
7. You'll be the one who'll lose
8. Kids in America
9. You keep me hangin' on
10. You keep me hangin' on (encore)

сэмпл

http://www22.zippyshare.com/v/85090304/file.html

General
Complete name                            : E:\Kim Wilde Sopot 88.avi
Format                                   : AVI
Format/Info                              : Audio Video Interleave
Format profile                           : OpenDML
File size                                : 2.02 GiB
Duration                                 : 46mn 7s
Overall bit rate                         : 6 269 Kbps

Video
ID                                       : 0
Format                                   : MPEG-4 Visual
Format profile                           : Advanced Simple@L5
Format settings, BVOP                    : 2
Format settings, QPel                    : No
Format settings, GMC                     : No warppoints
Format settings, Matrix                  : Default (H.263)
Muxing mode                              : Packed bitstream
Codec ID                                 : XVID
Codec ID/Hint                            : XviD
Duration                                 : 46mn 7s
Bit rate                                 : 4 851 Kbps
Width                                    : 768 pixels
Height                                   : 576 pixels
Display aspect ratio                     : 4:3
Frame rate                               : 25.000 fps
Color space                              : YUV
Chroma subsampling                       : 4:2:0
Bit depth                                : 8 bits
Scan type                                : Progressive
Compression mode                         : Lossy
Bits/(Pixel*Frame)                       : 0.439
Stream size                              : 1.56 GiB (77%)
Writing library                          : XviD 64

Audio
ID                                       : 1
Format                                   : PCM
Format settings, Endianness              : Little
Format settings, Sign                    : Signed
Codec ID                                 : 1
Duration                                 : 46mn 7s
Bit rate mode                            : Constant
Bit rate                                 : 1 411.2 Kbps
Channel(s)                               : 2 channels
Sampling rate                            : 44.1 KHz
Bit depth                                : 16 bits
Stream size                              : 466 MiB (23%)
Interleave, duration                     : 40 ms (1.00 video frame)
Interleave, preload duration             : 1020 ms

Kim Wilde Sopot 88.part11.rar
http://www2.zippyshare.com/v/25498457/file.html

Kim Wilde Sopot 88.part10.rar
http://www2.zippyshare.com/v/71200909/file.html

Kim Wilde Sopot 88.part09.rar
http://www2.zippyshare.com/v/6793787/file.html

Kim Wilde Sopot 88.part08.rar
http://www2.zippyshare.com/v/48329383/file.html

Kim Wilde Sopot 88.part07.rar
http://www2.zippyshare.com/v/97452588/file.html

Kim Wilde Sopot 88.part06.rar
http://www2.zippyshare.com/v/99772532/file.html

Kim Wilde Sopot 88.part05.rar
http://www2.zippyshare.com/v/55469567/file.html

Kim Wilde Sopot 88.part04.rar
http://www2.zippyshare.com/v/82614370/file.html

Kim Wilde Sopot 88.part03.rar
http://www2.zippyshare.com/v/41773907/file.html

Kim Wilde Sopot 88.part02.rar
http://www2.zippyshare.com/v/73542788/file.html

Kim Wilde Sopot 88.part01.rar
http://www2.zippyshare.com/v/22287444/file.html
Подпись автора
"Искусство принадлежит народу" (В.И.Ленин)



     Не затруднит ссылочки обновить?

0

83

обновлено

0

84

Audrey написал(а):

обновлено
Подпись автора
"Искусство принадлежит народу" (В.И.Ленин)

Премного благодарен!

0

85

http://upix.me/files/TnpPGo/funkstarkim-11142013102224000000.jpg

FUNKSTAR DELUXE FEAT. KIM WILDE - YOU KEEP ME HANGIN' ON (MUSIC VIDEO) (2013)

http://www38.zippyshare.com/v/69143428/file.html
http://shareplace.com/?35C6D16641
PASS: 2013

0

86

http://upix.me/files/alVmr0/kimrick-12142013060447000000.jpg 

KIM WILDE & RICK ASTLEY - WINTER WONDERLAND (2013)

http://www41.zippyshare.com/v/6190672/file.html
http://shareplace.com/?C615BD9442

Код:
PASS: 2013

0

87

Kim Wilde & Nik Kershaw - Rockin' Around the Christmas Tree (2013) [237:100]

File Name: Kim Wilde & Nik Kershaw - Rockin' Around the Christmas Tree (2013).V0B
File Size: 165.01 MB / 173 023 232 bytes
Duration: 00:03:47
Resolution and Framerate: 1024x432, 5 385 Kbps, PAL
Format: MPEG-PS
Audio: AC-3 (AC3), 448 Kbps (CBR), 48.0 KHz, 2 channels, 1 stream
http://s017.radikal.ru/i419/1312/d2/873268d5da19.jpg
http://s017.radikal.ru/i412/1312/25/e250f2007420.jpg
http://i078.radikal.ru/1312/46/1ea98226a186.jpg
http://s019.radikal.ru/i638/1312/a7/8c88174382f8.jpg
http://s006.radikal.ru/i214/1312/79/0d5f2c6f0746.jpg
http://s006.radikal.ru/i215/1312/fc/d92965bc6091.jpg

Скрытый текст:

Для просмотра скрытого текста - войдите или зарегистрируйтесь.

0

88

Kim Wilde - Love Blonde

http://s003.radikal.ru/i202/1312/ca/b232ec275be8.jpg
http://s020.radikal.ru/i715/1312/be/cd23de7dfb59.jpg

http://s47.radikal.ru/i117/1210/92/31ac997e63d1.gif

Скрытый текст:

Для просмотра скрытого текста - войдите или зарегистрируйтесь.

0

89

Kim Wilde - Say You Really Want Me (12 Inch Remix)

http://s020.radikal.ru/i722/1312/be/7cf8fabc9270.jpg
http://s017.radikal.ru/i440/1312/b4/adad3c3d81fd.jpg

http://s47.radikal.ru/i117/1210/92/31ac997e63d1.gif

Скрытый текст:

Для просмотра скрытого текста - войдите или зарегистрируйтесь.

0

90

Kim Wilde - You Came

http://s019.radikal.ru/i630/1312/a6/f602cc9f368f.jpg
http://s020.radikal.ru/i714/1312/d1/da467893d5aa.jpg

http://s47.radikal.ru/i117/1210/92/31ac997e63d1.gif

Скрытый текст:

Для просмотра скрытого текста - войдите или зарегистрируйтесь.

+1



Создать форум