Italo Disco World

Информация о пользователе

Привет, Гость! Войдите или зарегистрируйтесь.


Вы здесь » Italo Disco World » ДРУГОЕ видео » Candy Dulfer & Dave Steward-Lily was here


Candy Dulfer & Dave Steward-Lily was here

Сообщений 1 страница 2 из 2

1

Candy Dulfer+Dave Steward-Lily was here

http://s1.uploads.ru/i/gUWmI.jpg

http://s1.uploads.ru/i/HeiyY.jpg

параметры медиа файла

Format                           : AVI
Format/Info                      : Audio Video Interleave
File size                        : 124 MiB
Duration                         : 4mn 23s
Overall bit rate                 : 3 929 Kbps
Writing library                  : VirtualDub build 30009/release

Video
ID                               : 0
Format                           : MPEG-4 Visual
Format profile                   : Advanced Simple@L5
Format settings, BVOP            : Yes
Format settings, QPel            : No
Format settings, GMC             : No warppoints
Format settings, Matrix          : Custom
Muxing mode                      : Packed bitstream
Codec ID                         : XVID
Codec ID/Hint                    : XviD
Duration                         : 4mn 23s
Bit rate                         : 3 791 Kbps
Width                            : 720 pixels
Height                           : 576 pixels
Display aspect ratio             : 5:4
Frame rate                       : 25.000 fps
Standard                         : PAL
Color space                      : YUV
Chroma subsampling               : 4:2:0
Bit depth                        : 8 bits
Scan type                        : Progressive
Bits/(Pixel*Frame)               : 0.366
Stream size                      : 119 MiB (96%)
Writing library                  : XviD 64

Audio
ID                               : 1
Format                           : MPEG Audio
Format version                   : Version 1
Format profile                   : Layer 3
Mode                             : Joint stereo
Codec ID                         : 55
Codec ID/Hint                    : MP3
Duration                         : 4mn 23s
Bit rate mode                    : Constant
Bit rate                         : 128 Kbps
Channel(s)                       : 2 channels
Sampling rate                    : 48.0 KHz
Stream size                      : 4.02 MiB (3%)
Alignment                        : Split accross interleaves
Interleave, duration             : 40 ms (1.00 video frame)
Interleave, preload duration     : 500 ms

http://i17.fastpic.ru/big/2011/0310/e9/f1ccb074d99d16cb92c2d0cffcac7de9.gif
Fast Download Letitbit
Stable Download Deposit files

0

2

Dave Stewart & Candy Dulfer - Lilly Was Here (1989)mkv
http://4put.ru/pictures/max/904/2779835.jpg

Исполнитель:Dave Stewart & Candy Dulfer
Композиция:Lilly Was Here
Жанр:инструментал
Год:1989

Видео:AVC,720x576(4;3)(PAL),25000fps,2000kbps
Аудио:MPEG-1,48000Hz,2ch,320kbps
Размер:72.5МВ
Время:04мин.23сек.

Файлообменник:Depositfiles.com
Скачать(Download):

+1


Вы здесь » Italo Disco World » ДРУГОЕ видео » Candy Dulfer & Dave Steward-Lily was here


Создать форум