Italo Disco World

Информация о пользователе

Привет, Гость! Войдите или зарегистрируйтесь.


Вы здесь » Italo Disco World » ДРУГОЕ видео » Видео-клипы Ани Семенович - лучшее из коллекции


Видео-клипы Ани Семенович - лучшее из коллекции

Сообщений 1 страница 2 из 2

1

Клип - Боже мой

http://pic4you.ru/allimage/y2012/04-05/2966/1891723-thumb.jpeg

Размер: 29.3 Mb
Тип: avi (HDTV)
Продолжительность: 00:03:12
Формат: 512 х 384

http://www.cashtube.ru/img/play_thumb.jpg

Скачать клип бесплатно / HDTV..avi    (29.32 Mb)
http://depositfiles.com/files/2pb1us0qf


Новый клип Анны Семенович «Не Мадонна»

http://pic4you.ru/allimage/y2012/04-05/2966/1891534-thumb.jpeghttp://pic4you.ru/allimage/y2012/04-05/2966/1891469-thumb.jpeg http://pic4you.ru/allimage/y2012/04-05/2966/1891467-thumb.jpeg http://pic4you.ru/allimage/y2012/04-05/2966/1891468-thumb.jpeg http://pic4you.ru/allimage/y2012/04-05/2966/1891466-thumb.jpeg

Тип - mpeg,
Размер - 44.1 Mb 
Продолжительнось: 00:02:58
Формат: 704 х 576

Смотреть на ....

http://www.cashtube.ru/img/play.jpg

Download / Anna_Semenovich_-_Ne_Madonna.mpeg   (44.14 Mb)
http://depositfiles.com/files/dycu0c8d0


Arash feat Анна Семенович - На Моря

http://pic4you.ru/allimage/y2012/04-05/2966/1890422-thumb.jpeg

Исполнитель: Arash feat Анна Семенович
Название: На Моря
Продолжительность: 3:26
Год выхода: 2008
Размер: 84 Mb

http://pic4you.ru/allimage/y2012/04-05/2966/1890423-thumb.jpeg

Скачать Клип Arash feat Анна Семенович - На Моря / arash-feat-anna-semenovi4---na-morw-!!!.avi    (90.61 Mb)
http://depositfiles.com/files/ce0m5m5a4

Новый клип Анны Семенович - Тирольская песня

http://pic4you.ru/allimage/y2012/04-05/2966/1890540-thumb.jpeg

Жанр: Pop

Формат видео: mpeg4
Разрешение клипа: 720 x 576

Тип: Avi
Длительность: 0:03:16
Качество звука: 128 кбит/сек
Размер: 720 х 576
Размер файла: 47,5 мб

http://www.cashtube.ru/img/play.jpg

Общее Время: 03:16
Формат звука: mp3
Режим: Стерео
Битрейт: 128 kb/s

Download / anna_semenovich_-_tirolskaya_pesnia_-_www.video-best.ru    (47.54 Mb)
http://depositfiles.com/files/qcltxqeww

Отредактировано peterkr80 (2012-04-12 23:30:32)

0

2

Анна Семенович - Июльское лето

http://s1.uploads.ru/i/bcx6v.jpg
http://s1.uploads.ru/i/kH7K3.jpg

http://s1.uploads.ru/i/MnCr3.jpg

параметры медиа файла

Format                           : AVI
Format/Info                      : Audio Video Interleave
File size                        : 132 MiB
Duration                         : 3mn 10s
Overall bit rate                 : 5 821 Kbps
Writing library                  : VirtualDub build 30009/release

Video
ID                               : 0
Format                           : MPEG-4 Visual
Format profile                   : Advanced Simple@L5
Format settings, BVOP            : Yes
Format settings, QPel            : No
Format settings, GMC             : No warppoints
Format settings, Matrix          : Custom
Muxing mode                      : Packed bitstream
Codec ID                         : XVID
Codec ID/Hint                    : XviD
Duration                         : 3mn 10s
Bit rate                         : 5 683 Kbps
Width                            : 768 pixels
Height                           : 400 pixels
Display aspect ratio             : 1.920
Frame rate                       : 25.000 fps
Color space                      : YUV
Chroma subsampling               : 4:2:0
Bit depth                        : 8 bits
Scan type                        : Progressive
Bits/(Pixel*Frame)               : 0.740
Stream size                      : 129 MiB (98%)
Writing library                  : XviD 64

Audio
ID                               : 1
Format                           : MPEG Audio
Format version                   : Version 1
Format profile                   : Layer 3
Mode                             : Joint stereo
Mode extension                   : MS Stereo
Codec ID                         : 55
Codec ID/Hint                    : MP3
Duration                         : 3mn 10s
Bit rate mode                    : Constant
Bit rate                         : 128 Kbps
Channel(s)                       : 2 channels
Sampling rate                    : 44.1 KHz
Stream size                      : 2.90 MiB (2%)
Alignment                        : Split accross interleaves
Interleave, duration             : 40 ms (1.00 video frame)
Interleave, preload duration     : 500 ms
Writing library                  : LAME3.96

http://i17.fastpic.ru/big/2011/0310/e9/f1ccb074d99d16cb92c2d0cffcac7de9.gif
Fast Download Letitbit
Stable Download Deposit files

0


Вы здесь » Italo Disco World » ДРУГОЕ видео » Видео-клипы Ани Семенович - лучшее из коллекции


Создать форум