Italo Disco World

Информация о пользователе

Привет, Гость! Войдите или зарегистрируйтесь.



Celine Dion

Сообщений 1 страница 8 из 8

1

Celine Dion - Sil Nen Restait Quune

http://s3.postimage.org/11lhznbgk/celine1.jpg

http://www.multiupload.com/464L167J4V

0

2


Celine Dion - My Heart Will Go On

http://i069.radikal.ru/1405/1a/9336f1cce574.jpg

http://rusfolder.com/images/download_2.jpg

+1

3

Celine Dion - Where Does My Heart Beat Now

http://s4.postimage.org/36kdqs7j8/celine.jpg

http://www.multiupload.com/SFK50X8PP3

0

4

Celine Dion - Have You Ever Been In Love.

http://www.multiupload.com/FWOJ4MGHQ2

0

5

Celine Dion - Goodbye's ( The Saddest Word )

http://s4.postimage.org/620gl0k/celine.jpg

http://www.multiupload.com/Q72LD3BSMJ

0

6

Celine Dion - The Christmas Song + Alone (Christmas In Rockefeller Center @ 28.11.2007) [16:9]

File Name : Celine Dion - The Christmas Song + Alone (Christmas In Rockefeller Center @ 28.11.2007).VOB
File Size : 408.16 MB / 427 984 896 bytes
Resolution : 960x540
Duration : 00:05:39
Video : MPEG Video (MPEG-2 Video), 9 299 Kbps, 29.970 fps
Audio : AC-3 (AC3), 384 Kbps (CBR), 48.0 KHz, 2 channels, 1 stream
http://i32.fastpic.ru/big/2012/0106/7c/961b4ec8e0340b7f46a4a34811e10a7c.jpg
http://i31.fastpic.ru/big/2012/0106/27/c1c496da0f080895fcb1ce9ebe3fb527.jpg
http://i32.fastpic.ru/big/2012/0106/db/b2f3ec5e43eb51b2e30c1fb736857fdb.jpg
http://i27.fastpic.ru/big/2012/0106/3f/2c4182bb6beebd86404bde5b7766743f.jpg
http://i28.fastpic.ru/big/2012/0106/92/e42c30d8976da33efffead729a9a6e92.jpg
http://i28.fastpic.ru/big/2012/0106/87/9c701d43093aa67f464dacc3458bf987.jpg
http://i29.fastpic.ru/big/2012/0106/af/bc90aaf9115b7b06e9db5182e9da82af.jpg

Скрытый текст:

Для просмотра скрытого текста - войдите или зарегистрируйтесь.

Отредактировано Valery (2015-01-05 02:50:37)

0

7

Celine Dion - A New Day Has Come

Очень красивое и красочное видео!!!
http://s1.uploads.ru/i/BRSxZ.jpg

http://s1.uploads.ru/i/zfTH1.jpg

параметры медиа файла

Format                           : AVI
Format/Info                      : Audio Video Interleave
File size                        : 93.2 MiB
Duration                         : 4mn 20s
Overall bit rate                 : 3 003 Kbps
Writing library                  : VirtualDub build 30009/release

Video
ID                               : 0
Format                           : MPEG-4 Visual
Format profile                   : Advanced Simple@L5
Format settings, BVOP            : Yes
Format settings, QPel            : No
Format settings, GMC             : No warppoints
Format settings, Matrix          : Custom
Muxing mode                      : Packed bitstream
Codec ID                         : XVID
Codec ID/Hint                    : XviD
Duration                         : 4mn 20s
Bit rate                         : 2 863 Kbps
Width                            : 720 pixels
Height                           : 480 pixels
Display aspect ratio             : 3:2
Frame rate                       : 29.970 fps
Standard                         : NTSC
Color space                      : YUV
Chroma subsampling               : 4:2:0
Bit depth                        : 8 bits
Scan type                        : Progressive
Bits/(Pixel*Frame)               : 0.276
Stream size                      : 88.8 MiB (95%)
Writing library                  : XviD 64

Audio
ID                               : 1
Format                           : MPEG Audio
Format version                   : Version 1
Format profile                   : Layer 3
Mode                             : Joint stereo
Mode extension                   : MS Stereo
Codec ID                         : 55
Codec ID/Hint                    : MP3
Duration                         : 4mn 20s
Bit rate mode                    : Constant
Bit rate                         : 128 Kbps
Channel(s)                       : 2 channels
Sampling rate                    : 48.0 KHz
Stream size                      : 3.97 MiB (4%)
Alignment                        : Split accross interleaves
Interleave, duration             : 33 ms (1.00 video frame)
Interleave, preload duration     : 500 ms

http://i17.fastpic.ru/big/2011/0310/e9/f1ccb074d99d16cb92c2d0cffcac7de9.gif
Fast Download Letitbit
Stable Download Deposit files

0

8

Celine Dion - If You Asked Me To

https://s32.postimg.org/vpxmfofb5/Celine_Dion_If_You_Asked_Me_To_vob_thumbs_201.jpg

https://yadi.sk/mail/?hash=ekS3oNddi4pOQ7+1fFYq+7vQHpJW1DkOaZtCe6rzm2A=&uid=29758417
http://www60.zippyshare.com/v/qFvdk087/file.html
http://www60.zippyshare.com/v/uI5WFKIm/file.html

0



Создать форум