Italo Disco World

Информация о пользователе

Привет, Гость! Войдите или зарегистрируйтесь.


Вы здесь » Italo Disco World » Видеоклипы и концерты 60-70-80 » Laura Branigan


Создать форум

Laura Branigan

Сообщений 31 страница 40 из 40

31

Laura Branigan - Cry Wolf

http://s13.postimg.org/m57jx2o4z/Laura_Branigan_Cry_Wolf_avi_thumbs_2015_11_28.jpg

https://yadi.sk/i/dw1_ULpckoVv2
http://www15.zippyshare.com/v/iOeel25R/file.html

0

32

Laura Branigan - Self Control (ZDF. Show & Co. mit Carlo. 03.05.1984)

http://s24.postimg.org/l8i2xkrtd/Laura_Branigan_Self_Control_ZDF_Show_Co_m.jpg

  https://yadi.sk/i/06DVZEjPmjADY

http://www35.zippyshare.com/v/Vr2Cze68/file.html
http://www35.zippyshare.com/v/jHiIQLqG/file.html
http://www35.zippyshare.com/v/4B3LOi57/file.html

0

33

Laura Branigan - Fool's Affair (1981)

https://s31.postimg.org/kaciupk6f/Laura_Branigan_Fools_Affair_mpg_thumbs_2016_0.jpg

https://yadi.sk/mail/?hash=+C1n2AnG0053BBwZlc3Lk/Zc9tG9VzSmo4kftRLmJtY=&uid=29758417
http://www24.zippyshare.com/v/4QVh96eS/file.html

0

34

Laura Branigan - Gloria Jeunesse 1983

https://s31.postimg.org/4qy313zuf/Laura_Branigan_Gloria_Jeunesse_1983_mpg_thumbs.jpg

https://yadi.sk/mail/?hash=p9yXX83YKIRS16G5D1C+rrvZnWaSlqaD/Gho6vxkVYo=&uid=29758417
http://www104.zippyshare.com/v/a2abmKuz/file.html

0

35

Laura Branigan -  Gloria Gold Count Down '82

https://s32.postimg.org/4kmqa1icx/Laura_Branigan_Gloria_Gold_Count_Down_82_av.jpg

https://yadi.sk/mail/?hash=d7/czoLpco8HoWzWp1i71D6lr4oON8/e3QRK2Y//Q3s=&uid=29758417
http://www57.zippyshare.com/v/6Wuh9Rfu/file.html

0

36

Laura Branigan - Gloria, Shattered Glass & Over Love (A Tope, Spain)

https://s10.postimg.org/v0311yfbp/Laura_Branigan_mpg_thumbs_2016_10_19_08_47_54.jpg

https://yadi.sk/mail/?hash=4zHg0884VxdeFoptvu6avE5Ve7g+i9+6tiMxm3UAVpk=&uid=29758417
https://cloud.mail.ru/public/jNZP/tsbVvkMqq

0

37

Laura Branigan - All Night With Me  Disco mit Ilja Richter

https://s13.postimg.org/8vlk0db43/Laura_Branigan_All_Night_With_Me_vob_thumbs_2.jpg

https://yadi.sk/i/cEZFbCOxyVhwG

http://www8.zippyshare.com/v/637bUR05/file.html

0

38

Laura Branigan - Gloria (Discoring 1983)

https://i111.fastpic.ru/thumb/2019/1110/bf/_ec4640ab882e84c08b04885e87547fbf.jpeg

Полное имя                                Laura Branigan - Gloria - Discoring (1983) ( 720 X 1280 ).mp4
Формат                                    :  MPEG-4
Профиль формата                           :  Base Media
Идентификатор кодека                      :  isom (isom/iso2/avc1/mp41)
Размер файла                              :  100 Мбайт
Продолжительность                         :  6 м. 7 с.
Общий поток                               :  2287 Кбит/сек
Программа кодирования                     :  Lavf58.19.102

*** Видео
Идентификатор                             :  1
Формат                                    :  AVC
Формат/Информация                         :  Advanced Video Codec
Профиль формата                           :  Main@L3.1
Настройки формата                         :  CABAC / 3 Ref Frames
Параметр CABAC формата                    :  Да
Параметр RefFrames формата                :  3 кадра
Идентификатор кодека                      :  avc1
Идентификатор кодека/Информация           :  Advanced Video Coding
Продолжительность                         :  6 м. 7 с.
Битрейт                                   :  2151 Кбит/сек
Ширина                                    :  1280 пикселей
Высота                                    :  720 пикселей
Соотношение сторон                        :  16:9
Режим частоты кадров                      :  Постоянный
Частота кадров                            :  29,970 (30000/1001) кадров/сек
Цветовое пространство                     :  YUV
Субдискретизация насыщенности             :  4:2:0
Битовая глубина                           :  8 бит
Тип развёртки                             :  Прогрессивная
Бит/(Пиксели*Кадры)                       :  0.078
Размер потока                             :  94,3 Мбайт (94%)
Заголовок                                 :  ISO Media file produced by Google Inc.
Цветовой диапазон                         :  Limited
Основные цвета                            :  BT.709
Характеристики трансфера                  :  BT.709
Коэффициенты матрицы                      :  BT.709
Codec configuration box                   :  avcC

*** Аудио
Идентификатор                             :  2
Формат                                    :  AAC LC
Формат/Информация                         :  Advanced Audio Codec Low Complexity
Идентификатор кодека                      :  mp4a-40-2
Продолжительность                         :  6 м. 7 с.
Вид битрейта                              :  Постоянный
Битрейт                                   :  128 Кбит/сек
Каналы                                    :  2 канала
Channel layout                            :  L R
Частота                                   :  44,1 КГц
Частота кадров                            :  43,066 кадра/сек (1024 SPF)
Метод сжатия                              :  С потерями
Размер потока                             :  5,61 Мбайт (6%)
Заголовок                                 :  ISO Media file produced by Google Inc.
Язык                                      :  English
Default                                   :  Да
AlternateGroup/String                     :  1


https://www.mediafire.com/download/mekl7r9u87nwn0w

https://yadi.sk/i/wUAg4kCYE39ThQ

0

39

Laura Branigan - Spanish Eddie - The Tonight Show (1985)

https://i111.fastpic.ru/thumb/2019/1110/c2/_e5c7aaeec0104c2f1f9525db86ff3ac2.jpeg

*** Общее
Полное имя                                :  Laura Branigan - Spanish Eddie - The Tonight Show (1985) ( 720 X 1280 60fps ).mp4
Формат                                    :  MPEG-4
Профиль формата                           :  Base Media
Идентификатор кодека                      :  isom (isom/iso2/avc1/mp41)
Размер файла                              :  77,9 Мбайт
Продолжительность                         :  3 м. 49 с.
Общий поток                               :  2851 Кбит/сек
Программа кодирования                     :  Lavf58.19.102

*** Видео
Идентификатор                             :  1
Формат                                    :  AVC
Формат/Информация                         :  Advanced Video Codec
Профиль формата                           :  Main@L3.2
Настройки формата                         :  CABAC / 3 Ref Frames
Параметр CABAC формата                    :  Да
Параметр RefFrames формата                :  3 кадра
Идентификатор кодека                      :  avc1
Идентификатор кодека/Информация           :  Advanced Video Coding
Продолжительность                         :  3 м. 49 с.
Битрейт                                   :  2713 Кбит/сек
Ширина                                    :  1280 пикселей
Высота                                    :  720 пикселей
Соотношение сторон                        :  16:9
Режим частоты кадров                      :  Постоянный
Частота кадров                            :  59,940 (60000/1001) кадров/сек
Цветовое пространство                     :  YUV
Субдискретизация насыщенности             :  4:2:0
Битовая глубина                           :  8 бит
Тип развёртки                             :  Прогрессивная
Бит/(Пиксели*Кадры)                       :  0.049
Размер потока                             :  74,1 Мбайт (95%)
Заголовок                                 :  ISO Media file produced by Google Inc. Created on: 04/14/2019.
Цветовой диапазон                         :  Limited
Основные цвета                            :  BT.709
Характеристики трансфера                  :  BT.709
Коэффициенты матрицы                      :  BT.709
Codec configuration box                   :  avcC

*** Аудио
Идентификатор                             :  2
Формат                                    :  AAC LC
Формат/Информация                         :  Advanced Audio Codec Low Complexity
Идентификатор кодека                      :  mp4a-40-2
Продолжительность                         :  3 м. 49 с.
Вид битрейта                              :  Постоянный
Битрейт                                   :  128 Кбит/сек
Каналы                                    :  2 канала
Channel layout                            :  L R
Частота                                   :  44,1 КГц
Частота кадров                            :  43,066 кадра/сек (1024 SPF)
Метод сжатия                              :  С потерями
Размер потока                             :  3,50 Мбайт (4%)
Заголовок                                 :  ISO Media file produced by Google Inc. Created on: 04/14/2019.
Язык                                      :  English
Default                                   :  Да
AlternateGroup/String                     :  1

https://www.mediafire.com/download/005apy5ahre628j

0

40

Laura Branigan - Gloria - Live Seoul Song Festival (1988)

https://i111.fastpic.ru/thumb/2019/1110/41/_59beeb18b70ed56975d656091572da41.jpeg

*** Общее
Полное имя                                :  Laura Branigan - Gloria - Live Seoul Song Festival (1988) ( 720 X 1280 60fps ).mp4
Формат                                    :  MPEG-4
Профиль формата                           :  Base Media
Идентификатор кодека                      :  isom (isom/iso2/avc1/mp41)
Размер файла                              :  116 Мбайт
Продолжительность                         :  4 м. 22 с.
Общий поток                               :  3693 Кбит/сек
Программа кодирования                     :  Lavf58.19.102

*** Видео
Идентификатор                             :  1
Формат                                    :  AVC
Формат/Информация                         :  Advanced Video Codec
Профиль формата                           :  Main@L3.2
Настройки формата                         :  CABAC / 3 Ref Frames
Параметр CABAC формата                    :  Да
Параметр RefFrames формата                :  3 кадра
Идентификатор кодека                      :  avc1
Идентификатор кодека/Информация           :  Advanced Video Coding
Продолжительность                         :  4 м. 22 с.
Битрейт                                   :  3555 Кбит/сек
Ширина                                    :  1280 пикселей
Высота                                    :  720 пикселей
Соотношение сторон                        :  16:9
Режим частоты кадров                      :  Постоянный
Частота кадров                            :  59,940 (60000/1001) кадров/сек
Цветовое пространство                     :  YUV
Субдискретизация насыщенности             :  4:2:0
Битовая глубина                           :  8 бит
Тип развёртки                             :  Прогрессивная
Бит/(Пиксели*Кадры)                       :  0.064
Размер потока                             :  111 Мбайт (96%)
Заголовок                                 :  ISO Media file produced by Google Inc. Created on: 03/12/2019.
Цветовой диапазон                         :  Limited
Основные цвета                            :  BT.709
Характеристики трансфера                  :  BT.709
Коэффициенты матрицы                      :  BT.709
Codec configuration box                   :  avcC

*** Аудио
Идентификатор                             :  2
Формат                                    :  AAC LC
Формат/Информация                         :  Advanced Audio Codec Low Complexity
Идентификатор кодека                      :  mp4a-40-2
Продолжительность                         :  4 м. 22 с.
Вид битрейта                              :  Постоянный
Битрейт                                   :  128 Кбит/сек
Каналы                                    :  2 канала
Channel layout                            :  L R
Частота                                   :  44,1 КГц
Частота кадров                            :  43,066 кадра/сек (1024 SPF)
Метод сжатия                              :  С потерями
Размер потока                             :  4,00 Мбайт (3%)
Заголовок                                 :  ISO Media file produced by Google Inc. Created on: 03/12/2019.
Язык                                      :  English
Default                                   :  Да
AlternateGroup/String                     :  1

https://www.mediafire.com/download/1y4s3vmc946hc68

0

Создать форум

Вы здесь » Italo Disco World » Видеоклипы и концерты 60-70-80 » Laura Branigan


Создать форум