Italo Disco World

Информация о пользователе

Привет, Гость! Войдите или зарегистрируйтесь.


Вы здесь » Italo Disco World » Видеоклипы и концерты 60-70-80 » Mylene Farmer


Mylene Farmer

Сообщений 31 страница 37 из 37

31

Mylène Farmer ‎– En Concert
http://s15.postimage.org/otyoo0iif/VTS_01_1_VOB_thumbs_2012_06_07_13_37_00.jpghttp://s13.postimage.org/rei7hmkab/VTS_01_2_VOB_thumbs_2012_06_07_14_10_54.jpghttp://s14.postimage.org/g18j8uavx/VTS_01_3_VOB_thumbs_2012_06_07_14_11_33.jpghttp://s18.postimage.org/3zt88q5n9/VTS_01_4_VOB_thumbs_2012_06_07_14_12_01.jpg

http://s15.postimage.org/3wkjjr7w7/mylen.jpghttp://s10.postimage.org/ph8hbij51/mylen2.jpghttp://s14.postimage.org/r51c5xaxp/mylen3.jpghttp://s8.postimage.org/lh5xdfi5t/mylen4.jpghttp://s11.postimage.org/w2wn4jgnz/mylen5.jpg

cэмплы
http://www63.zippyshare.com/v/46144646/file.html
http://www66.zippyshare.com/v/77177813/file.html


Label:PolyGram Music Video – 082 814 3
Country:France
Released: 1990
Genre:Electronic
Style:Synth-pop

Format:DVD5
Size: 3. 5 GB

Код:
Video: MPEG2 Video 720x576 25fps 9000kbps [Video]
Audio: 0x0000 48000Hz stereo 1536kbps [LPCM]


General
Complete name                  : E:\VIDEO_TS\VTS_01_1.VOB
Format                         : MPEG-PS
File size                      : 1 000 MiB
Duration                       : 32mn 16s
Overall bit rate mode          : Variable
Overall bit rate               : 4 332 Kbps
Writing library                : (c) 1998-2009 Womble Multimedia, Inc. / MPEG Video Wizard (03/2009) / Dec  9 2009

Video
ID                             : 224 (0xE0)
Format                         : MPEG Video
Format version                 : Version 2
Format profile                 : Main@Main
Format settings, BVOP          : No
Format settings, Matrix        : Default
Duration                       : 32mn 16s
Bit rate mode                  : Variable
Bit rate                       : 2 709 Kbps
Maximum bit rate               : 9 000 Kbps
Width                          : 720 pixels
Height                         : 576 pixels
Display aspect ratio           : 5:4
Frame rate                     : 25.000 fps
Standard                       : PAL
Color space                    : YUV
Chroma subsampling             : 4:2:0
Bit depth                      : 8 bits
Scan type                      : Progressive
Compression mode               : Lossy
Bits/(Pixel*Frame)             : 0.261
Stream size                    : 626 MiB (63%)
Writing library                : (c) 1998-2009 Womble Multimedia, Inc. / MPEG Video Wizard (03/2009) / Dec  9 2009

Audio
ID                             : 189 (0xBD)-160 (0xA0)
Format                         : PCM
Format settings, Endianness    : Big
Format settings, Sign          : Signed
Muxing mode                    : DVD-Video
Duration                       : 32mn 16s
Bit rate mode                  : Constant
Bit rate                       : 1 536 Kbps
Channel(s)                     : 2 channels
Sampling rate                  : 48.0 KHz
Bit depth                      : 16 bits
Stream size                    : 355 MiB (35%)

Tracklist

01     Prologue    
02     L'horloge    
03     Sans Logique    
04     Maman A Tort    
05     Déshabillez Moi    
06     Puisque    
07     Pourvu Qu'elles Soient Douces    
08     A Quoi Je Sers    
09     Sans Contrefaçon    
10     Jardin De Vienne    
11     Tristana    
12     Ainsi Soit Je    
13     Libertine    
14     Je Voudrais Tant Que Tu Comprennes    
15     Mouvements De Lune

http://ifolder.ru/30976671
http://ifolder.ru/30976655
http://ifolder.ru/30977632
http://ifolder.ru/30978447
http://ifolder.ru/30979173
http://ifolder.ru/30979127
http://ifolder.ru/30979861
http://ifolder.ru/30979529

+1

32

Mylene Farmer - Pourvu Qu'elles Soient Douces (Jacky Show 1988)

http://s019.radikal.ru/i639/1206/7f/c2b8f95a1214.jpg

http://ifolder.ru/31032934

Отредактировано winsborn (2012-06-10 22:19:32)

0

33

http://s2.pic4you.ru/allimage/y2013/03-11/5863/3242895-thumb.jpeg http://s2.pic4you.ru/allimage/y2013/03-11/5863/3242896-thumb.jpeg http://s2.pic4you.ru/allimage/y2013/03-11/5863/3242897-thumb.jpeg http://s2.pic4you.ru/allimage/y2013/03-11/5863/3242898-thumb.jpeg http://s2.pic4you.ru/allimage/y2013/03-11/5863/3242899-thumb.jpeg http://s2.pic4you.ru/allimage/y2013/03-11/5863/3242900-thumb.jpeg http://s2.pic4you.ru/allimage/y2013/03-11/5863/3242901-thumb.jpeg http://s2.pic4you.ru/allimage/y2013/03-11/5863/3242902-thumb.jpeg http://s2.pic4you.ru/allimage/y2013/03-11/5863/3242903-thumb.jpeg http://s2.pic4you.ru/allimage/y2013/03-11/5863/3242904-thumb.jpeg http://s2.pic4you.ru/allimage/y2013/03-11/5863/3242905-thumb.jpeg

Type: avi
Size: 85.94 Mb
Duration: 00:10:13

Download: Mylene_Farmer_-_Desenchantee.avi

Скрытый текст:

Для просмотра скрытого текста - войдите или зарегистрируйтесь.


0

34

Mylène Farmer - Maman a tort (1984)

http://i69.fastpic.ru/thumb/2015/0922/ed/bc81a1c2ef404bb04d5cbb5f8ded87ed.jpeg

http://rusfolder.com/44251419

0

35

Mylene Farmer Maman a tort Bleu Nuit RTL TV 27 decembre 1986

http://i71.fastpic.ru/thumb/2015/0930/31/aa49462257eb98adf5fe963336288531.jpeg

https://yadi.sk/i/Mn6jzAlYjRu96

0

36

Mylene Farmer Sans Contrefacon 1987

http://i68.fastpic.ru/thumb/2015/0930/fa/a449f4c831fd226deda1a2b1cfdce0fa.jpeg

https://yadi.sk/i/nTupvoiWjS24A

0

37

Mylene Farmer & Sting - Stolen Car (Promo video 2015)

Video: MPEG-PS  1920x1080 (16:9) 25.000 fps 5673 Kbps 167 Mb
Audio: MPEG Audio 320 Kbps 48 000 Khz 2 channels stereo

http://s017.radikal.ru/i408/1511/c3/72e0bce83c27t.jpg

https://cloud.mail.ru/public/GdLZ/vxboYNs3j
https://yadi.sk/i/3zIdbqMfkcxQL

0


Вы здесь » Italo Disco World » Видеоклипы и концерты 60-70-80 » Mylene Farmer


Создать форум