Italo Disco World

Информация о пользователе

Привет, Гость! Войдите или зарегистрируйтесь.



Herrey's

Сообщений 1 страница 30 из 47

1

Herreys  - Diggi-Loo Diggi-Ley (Eurovision)
http://s1.postimage.org/SkIDJ.jpg

avi. 36 mb. 560 X 420

Скрытый текст:

Для просмотра скрытого текста - войдите или зарегистрируйтесь.

0

2

Herrey's  - I see The Love

http://s1.postimage.org/SmfVi.jpghttp://s2.postimage.org/LF9qA.jpg

mpg. 107 mb. 528 X 234

Скрытый текст:

Для просмотра скрытого текста - войдите или зарегистрируйтесь.

0

3

А вот это новые, 2009 год... Сами братья далеко не такие молодые и красивые, зато СУПЕРКАЧЕСТВО

Herrey's - Mirror Mirror (Live)

http://s3.postimage.org/pHIY9.jpg
mp4. 1280 X 720 . 39 mb

Скрытый текст:

Для просмотра скрытого текста - войдите или зарегистрируйтесь.

========================

Herreys - Kom Loss (Live)

http://s3.postimage.org/pIomA.jpg

mp4, 55 mb. 1280 X 720

Скрытый текст:

Для просмотра скрытого текста - войдите или зарегистрируйтесь.

0

4

Herreys - Summerparty (Sopot)

http://s4.postimage.org/1xr2ha1k4/Herreys_Summerparty_Sopot_mpg_thumbs_2010_12.jpg

mpg. 128 mb. 720 X 576

Скрытый текст:

Для просмотра скрытого текста - войдите или зарегистрируйтесь.

0

5

Herreys - Every song you sing

http://s18.postimage.org/sjzgt45t1/Herreys_Every_song_you_sing_avi_thumbs_2012_0.jpg

http://rusfolder.com/32104872

0

6

Herreys - People From Ibiza

http://s12.postimage.org/8las7ivo9/Herreys_People_From_Ibiza_avi_thumbs_2011_11.jpg

http://rusfolder.com/32106292

0

7

Herreys - Duvan

http://s13.postimage.org/769rda33n/Herreys_Duvan_avi_thumbs_2012_01_19_19_08_24.jpg

http://rusfolder.com/32100767

0

8

Herreys - People say it s in the air

http://s3.postimage.org/9xb5s6gz3/people.jpg

http://rusfolder.com/32104868

0

9

Herreys - Ingenting som hindrar me

http://s18.postimage.org/rcupsdug5/Herreys_Ingenting_som_hindrar_mej_avi_thumbs.jpg

http://www.multiupload.com/433KX6GKYD

0

10

Herreys - Diggiloo Diggiley English version Live

http://s7.postimage.org/jvp8bjghz/digiloo.jpg

http://rusfolder.com/32106291

0

11

Herreys - Chinese Temptation

http://s7.postimage.org/99ital6yf/cninese.jpg

http://rusfolder.com/32104869

0

12

Herreys People says it's in the air live

http://s8.postimage.org/uwm2ng30x/people_says_2.jpg

http://www.multiupload.com/ETEL90RSMQ

0

13

Herreys - Not Funny

http://s7.postimage.org/ni88bgb6f/funny.jpg

http://www.multiupload.com/3L08TZODAB

0

14

Herreys  -  Diggi loo diggi ley Eurovision 1984 ESC Eurosong Sweden

http://s12.postimage.org/t49cnk68p/Herrey_s_Diggi_loo_diggi_ley_Eurovision_1984_ES.jpg

http://www.multiupload.com/VTSFCCJH86

0

15

Herreys - Din Telefon

http://s8.postimage.org/yx3dhmqe9/Herreys_Din_Telefon_avi_thumbs_2011_11_29_22.jpg

http://rusfolder.com/32104871

0

16

Herreys - Diggiloo diggiley English version

http://s11.postimage.org/a3gjimeof/Herreys_Diggiloo_diggiley_English_avi_thumbs.jpg

http://rusfolder.com/32104870

0

17

Herreys - Kalla karar

http://s9.postimage.org/ze6n29s8b/Herreys_Kalla_karar_avi_thumbs_2011_11_30_14.jpg

http://www.multiupload.com/PV48Y9CXWB

0

18

Herreys - Summerparty

http://s17.postimage.org/8uilq9zh7/Herreys_Summerparty_avi_thumbs_2012_01_11_21.jpg

http://rusfolder.com/32104873

0

19

Herreys - Mirror Mirror (Baltic Song Festival)

http://s8.postimage.org/ttkse60o1/Herreys_Mirror_Mirror_Baltic_Song_Festival_a.jpg

http://rusfolder.com/32104874

0

20

получше по качеству хоть и не воб ))))

Eurovision 1984 - Sweden - Herreys - Diggi-loo diggi-ley

http://s14.postimage.org/agnx7qh31/Eurovision_1984_Sweden_Herreys_Diggi_loo_d.jpg

http://rusfolder.com/32100766

0

21

Herreys - Hold on (live)

http://s16.postimage.org/ad6jy4dg1/Herreys_Hold_on_live_avi_thumbs_2011_12_30.jpg

http://www.multiupload.com/JV4NATH2L2

0

22

Herreys - Mirror Mirror

http://s11.postimage.org/7wzmzy4wf/Herreys_Mirror_Mirror_avi_thumbs_2012_01_09_0.jpg

http://rusfolder.com/32104875

0

23

Herreys   - Kalla Karar (Baltic Song festival)

http://s17.postimage.org/ddepu7dqz/Herreys_Kalla_Karar_Baltic_Song_festival_avi_t.jpg

http://rusfolder.com/32100769

0

24

Herreys -  I'm so sorry (live)

http://s11.postimage.org/hhur38qun/Herreys_I_m_so_sorry_live_avi_thumbs_2012_01.jpg

http://rusfolder.com/32100768

0

25

Herreys -  Make me a believer (Baltic Song Festival)

http://s14.postimage.org/5q4oedlbx/Herreys_Make_me_a_believer_Baltic_Song_Festival.jpg

http://rusfolder.com/32100770

0

26

Herreys -  Min ensamma vra Live

http://s17.postimage.org/o1wnu4jgr/Herreys_Min_ensamma_vra_avi_thumbs_2012_01_22_1.jpg

http://narod.ru/disk/38480342001/Herreys Min ensamma vra.avi.html
http://rusfolder.com/32100771

0

27

Herrey's - Diggi-loo diggi-ley Melodifestivalen

http://s13.postimage.org/skppaxg2r/Herrey_s_Diggi_loo_diggi_ley_Melodifestivalen.jpg

http://rusfolder.com/32090113
http://www44.zippyshare.com/v/40064427/file.html

0

28

Herreys - Summerparty Sopot 85

http://s14.postimage.org/6g4k4g9al/Herreys_Summerparty_Sopot_85_avi_thumbs_2012.jpg

http://rusfolder.com/32106900
http://www41.zippyshare.com/v/95462176/file.html

0

29

Herreys - Sopot 1986

http://s8.postimage.org/oq32pr3zl/Herreys_Sopot_1986_avi_thumbs_2012_08_16_12_0.jpg

Tracklist:

Crazy People
Mirror Mirror
People Saya In The Air
Summerparty
Rock and Roll Medley
Summerparty

Mediainfo:

Format                         : AVI
Format/Info                    : Audio Video Interleave
File size                      : 830 MiB
Duration                       : 34mn 17s
Overall bit rate               : 3 385 Kbps
Writing library                : VirtualDub build 32842/release

Video
ID                             : 0
Format                         : AVC
Format/Info                    : Advanced Video Codec
Format profile                 : High@L3.0
Format settings, CABAC         : Yes
Format settings, ReFrames      : 3 frames
Codec ID                       : H264
Duration                       : 34mn 17s
Bit rate                       : 3 300 Kbps
Width                          : 720 pixels
Height                         : 576 pixels
Display aspect ratio           : 5:4
Frame rate                     : 25.000 fps
Standard                       : PAL
Color space                    : YUV
Chroma subsampling             : 4:2:0
Bit depth                      : 8 bits
Scan type                      : Progressive
Bits/(Pixel*Frame)             : 0.318
Stream size                    : 796 MiB (96%)
Writing library                : x264 core 122 r2184kMod 5c85e0a
Encoding settings              : cabac=1 / ref=3 / deblock=1:0:0 / analyse=0x3:0x13 / me=umh / subme=7 / psy=1 / fade_compensate=0.00 / psy_rd=1.00:0.00 / mixed_ref=1 / me_range=16 / chroma_me=1 / trellis=1 / 8x8dct=1 / cqm=0 / deadzone=21,11 / fast_pskip=1 / chroma_qp_offset=-2 / threads=2 / sliced_threads=1 / slices=2 / nr=0 / decimate=1 / interlaced=0 / bluray_compat=0 / constrained_intra=0 / bframes=0 / weightp=2 / keyint=250 / keyint_min=25 / scenecut=40 / intra_refresh=0 / rc=abr / mbtree=0 / bitrate=3300 / ratetol=1.0 / qcomp=0.60 / qpmin=10 / qpmax=51 / qpstep=4 / ip_ratio=1.40 / aq=1:1.00

Audio
ID                             : 1
Format                         : MPEG Audio
Format version                 : Version 1
Format profile                 : Layer 3
Mode                           : Joint stereo
Mode extension                 : MS Stereo
Codec ID                       : 55
Codec ID/Hint                  : MP3
Duration                       : 34mn 17s
Bit rate mode                  : Constant
Bit rate                       : 128 Kbps
Channel(s)                     : 2 channels
Sampling rate                  : 44.1 KHz
Compression mode               : Lossy
Stream size                    : 31.4 MiB (4%)
Alignment                      : Split accross interleaves
Interleave, duration           : 40 ms (1.00 video frame)
Interleave, preload duration   : 500 ms

http://narod.ru/disk/59481736001.81a01e18a4d6fc74bade3f29e7d7aab9/Herreys - Sopot 1986.avi.html

0

30

Herreys - Kalla Karar (Kanal 1 26.12.1985)

http://s24.postimg.org/buy237lpd/Herreys_Kalla_Karar_avi_thumbs_2016_02_23_20.jpg

https://yadi.sk/i/h9R7P3PZpNcEE

http://www101.zippyshare.com/v/l07Ro9co/file.html

0



Создать форум